Monday, February 15, 2016

L'Art de Maurice Gendron DECCA 14CD





34 comments:

  1. Merci beaucoup bis! Is there a way to identify contents of each cd? Very hard to find this online. Decca doesn't even list this collection. Strange.

    ReplyDelete
  2. Hi! You can find contents in Presto Classical
    http://www.prestoclassical.co.uk/r/Decca/4823864

    ReplyDelete
  3. ====================================================
    CD 1
    Antonín Dvorák: Cello Concerto in B minor, Op.104
    1. Allegro
    2. Adagio ma non troppo
    3. Finale (Allegro moderato)

    Franz Schubert: Sonata for Arpeggione and Piano in A minor, D.821
    1. Allegro moderato
    2. Adagio
    3. Allegretto

    Piotr Ilyich Tchaikovsky: Variations on a Rococo Theme, Op.33

    ====================================================
    CD 2
    Robert Schumann: Cello Concerto in A minor, Op.129
    1. Nicht zu schnell
    2. Langsam
    3. Sehr lebhaft

    Robert Schumann: Fantasiestücke, Op.73
    1. Zart und mit Ausdruck
    2. Lebhaft, leicht
    3. Rasch und mit Feuer

    Robert Schumann: 3 Romances, Op.94
    No.1 Nicht schnell
    No.2 Einfach, innig
    No.3 Nicht schnell

    Robert Schumann: Cello Concerto in A minor, Op.129
    1. Nicht zu schnell
    2. Langsam
    3. Sehr lebhaft

    ====================================================
    CD 3
    Joseph Haydn: Cello Concerto in D,H.VIIb No.2
    1. Allegro moderato
    2. Adagio
    3. Rondo (Allegro)

    Luigi Boccherini: Cello Concerto in B flat
    1. Allegro moderato
    2. Andantino grazioso
    3. Rondo (Allegro)

    Piotr Ilyich Tchaikovsky: Variations on a Rococo Theme, Op.33

    Piotr Ilyich Tchaikovsky: Pezzo capriccioso for cello and orchestra, Op.62

    ====================================================
    CD 4
    Johann Sebastian Bach: Suite for Cello Solo No.1 in G, BWV 1007
    1. Prélude
    2. Allemande
    3. Courante
    4. Sarabande
    5. Menuet I-II
    6. Gigue

    Johann Sebastian Bach: Suite for Cello Solo No.4 in E flat, BWV 1010
    1. Prélude
    2. Allemande
    3. Courante
    4. Sarabande
    5. Bourrée I-II
    6. Gigue

    Johann Sebastian Bach: Suite for Cello Solo No.6 in D, BWV 1012
    1. Prélude
    2. Allemande
    3. Courante
    4. Sarabande
    5. Gavotte I-II
    6. Gigue

    ====================================================
    CD 5
    Johann Sebastian Bach: Suite for Cello Solo No.2 in D minor, BWV 1008
    1. Prélude
    2. Allemande
    3. Courante
    4. Sarabande
    5. Menuet I-II
    6. Gigue

    Johann Sebastian Bach: Suite for Cello Solo No.3 in C, BWV 1009
    1. Prélude
    2. Allemande
    3. Courante
    4. Sarabande
    5. Bourrée I-II
    6. Gigue

    Johann Sebastian Bach: Suite for Cello Solo No.5 in C minor, BWV 1011
    1. Prélude
    2. Allemande
    3. Courante
    4. Sarabande
    5. Gavotte I-II
    6. Gigue

    Ludwig van Beethoven: 12 Variations on "See the conquering hero comes" for Cello and Piano, WoO 45

    ====================================================
    CD 6
    Ludwig van Beethoven: 7 Variations on "Bei Männern, welche Liebe fühlen", for Cello and Piano, WoO 46

    Ludwig van Beethoven: 12 Variations on "Ein Mädchen oder Weibchen" for Cello and Piano, Op. 66

    Antonio Vivaldi: Sonata for cello and Continuo in B flat, RV.47
    1. Largo
    2. Allegro
    3. Largo
    4. Allegro

    Antonio Vivaldi: Sonata for Cello and Continuo in F major, R.41
    1. Largo
    2. Allegro
    3. Largo
    4. Allegro

    Antonio Vivaldi: Sonata for Cello and Continuo in A minor, R.43
    1. Largo
    2. Allegro poco
    3. Largo
    4. Allegro

    Antonio Vivaldi: Sonata for Cello and Continuo in B flat, R.45
    1. Largo
    2. Allegro
    3. Largo
    4. Allegro

    Antonio Vivaldi: Sonata for Cello and Continuo in E minor, R.40
    1. Largo
    2. Allegro
    3. Largo
    4. Allegro

    Antonio Vivaldi: Sonata for Cello and Continuo in B flat, R.46
    1. Preludio (Largo)
    2. Allemanda (Allegro)
    3. Largo
    4. Corrente (Allegro)

    ReplyDelete
  4. ====================================================
    CD 7
    Franz Schubert: Sonata for Arpeggione and Piano in A minor, D.821
    1. Allegro moderato
    2. Adagio
    3. Allegretto

    Claude Debussy: Sonata for Cello and Piano in D minor
    1. Prologue (lent)
    2. Sérénade (Modérément animé)
    3. Finale (Animé)

    Jean Françaix: Berceuse

    Jean Françaix: Rondino staccato - Arr. Maurice Gendron

    Jean Françaix: Nocturne - Arr. Maurice Gendron

    Jean Françaix: Mouvement perpétuel

    Jean Françaix: Sérénade - Arr. Maurice Gendron

    Gabriel Fauré: Sonata for Cello and Piano No.2 in D minor, Op.117
    1. Allegro
    2. Andante
    3. Allegro vivo

    Olivier Messiaen: Quatuor pour la fin du temps
    5. Louange à l'Eternité de Jésus

    ====================================================
    CD 8
    Joseph Haydn: Cello Concerto in C, H.VIIb, No.1
    1. Moderato
    2. Adagio
    3. Finale (Allegro molto)

    Antonín Dvorák: Cello Concerto in B minor, Op.104
    1. Allegro
    2. Adagio ma non troppo
    3. Finale (Allegro moderato)

    Antonín Dvorák: Rondo in G minor, Op.94

    Antonín Dvorák: Silent Woods, Op.68/5

    ====================================================
    CD 9
    Luigi Boccherini: Cello Concerto in G
    1. Allegro
    2. Adagio
    3. Allegro

    Camille Saint-Saëns: Cello Concerto No.1 in A minor, Op.33
    Allegro non troppo - Animato - Allegro molto - Tempo I - Allegretto con moto - Tempo I - Un poco meno allegro - Più allegro (Tempo I) - Molto allegro

    Gabriel Fauré: Elégie, Op.24

    Edouard Victor Antoine Lalo: Cello Concerto in D minor
    1. Prélude: Lento - Allegro maestoso
    2. Intermezzo: Andantino con moto - Allegro presto
    3. Andante - Allegro vivace

    ====================================================
    CD 10

    Ludwig van Beethoven: Piano Trio No.5 In D, Op.70 No.1 - "Geistertrio"
    1. Allegro vivace e con brio
    2. Largo assai ed espressivo
    3. Presto

    Franz Schubert: Piano Trio No.1 in B flat, Op.99 D.898
    1. Allegro moderato
    2. Andante un poco mosso
    3. Scherzo (Allegro)
    4. Rondo (Allegro vivace)

    Franz Schubert: Sonatensatz in B Flat Major D.28

    ====================================================
    CD 11
    Ludwig van Beethoven: Piano Trio No.6 in E flat, Op.70 No.2
    1. Poco sostenuto - Allegro ma non troppo
    2. Allegretto
    3. Allegretto ma non troppo
    4. Finale (Allegro)

    Franz Schubert: Piano Trio No.2 in E flat, Op.100 D.929
    1. Allegro
    2. Andante con moto
    3. Scherzando (Allegro molto) & Trio
    4. Allegro moderato

    Franz Schubert: Notturno in E flat major D.897

    ====================================================
    CD 12
    Johannes Brahms: String Sextet No.1 in B flat, Op.18
    I. Allegro ma non troppo
    II. Andante ma moderato
    III. Scherzo (Allegro molto)
    IV. Rondo (Poco allegretto e grazioso)

    Johannes Brahms: String Sextet No.2 in G, Op.36
    I. Allegro non troppo
    II. Scherzo (allegro non troppo - presto giocoso)
    III. Poco adagio
    IV. Poco allegro


    ====================================================
    CD 13
    Johannes Brahms: Piano Trio No.2 in C, Op.87
    1. Allegro
    2. Andante con moto
    3. Scherzo (Presto)
    4. Finale (Allegro giocoso)

    Peter Ilyich Tchaikovsky: Piano Trio in A Minor, Op.50
    1. Pezzo elegiaco - Moderato assai - Allegro giusto
    2. Tema (Andante con moto)
    Var. I: L'istesso tempo
    Var. II: Più mosso
    Var. III: Allegro moderato
    Var. IV: L'istesso tempo
    Var. V: L'istesso tempo
    Var. VI: Tempo di valse
    Var. VII: Allegro moderato
    Var. VIII: Fuga (Allegro moderato)
    Var. IX: Andante flebile, ma non tanto
    Var. X: Tempo di mazurka
    Var. XI: Moderato
    Variazione finale e Coda

    ReplyDelete
    Replies
    1. https://www.youtube.com/watch?v=wLKJiGTQmlI

      Gran publicacion!

      MUCHAS GRACIAS !!! … Merci! Thank you! Obrigado! Спасибо! !ありがう! Arigato! Danke! Dziękuję! Dank je u! Mulţumesc! Teşekkür ederim! Tack! Tack så mycket! Grazie! Kiitos! תודה לך! Takk! Dakujem,ďakujem vám! Hvala! شكراً!shokran! Ευχαριστώ! 감사합니다! Děkuji! Tak skal du have! Dankon! Hvala! Najlepša hvala! Gràcies! Faleminderit! Ačiū! De’koju! Labai ačiū! ขอบคุณ! Shukrīya! بہت) شكريه (bahut)! Cảm ơn cô! Cảm ơn cô nhiều! Благодаря! Þakka þér! Baie dankie! Takk fyri! Sipas dekem! متشکرم! Благодарам! Təşəkkür! Paldies! Pateicos! Tencinu! Terima kasih! Дуже дякую! Спасибі! Баярлалаа! Гялайлаа! Танд их баярлалаа! Terima kasih! ধন্যবাদ (dhonyobād)! Salamat! Trugarez!

      Delete
  5. ====================================================
    CD 14
    David Popper: Serenade, Op.54, No.2

    George Frideric Handel: Serse / Act 1
    Ombra mai fu (Largo)

    Camille Saint-Saëns: Le Carnaval des Animaux
    Le Cygne

    Robert Schumann: Kinderszenen, Op.15
    7. Träumerei

    Nicolai Rimsky-Korsakov: The Tale Of Tsar Saltan
    The Flight of the Bumble-Bee

    Niccolò Paganini: Introduction & Variations on "Dal tuo stellato" from Rossini's Opera "Mosè"

    Maurice Moritz Moszkowski: Guitare, Op.45, No.2

    Fritz Kreisler: Liebesleid

    Manuel de Falla: La vida breve / Act 2
    Spanish Dance No.1

    Johann Sebastian Bach: Ich ruf zu dir, Herr Jesu Christ, BWV 639

    Frédéric Chopin: Introduction and Polonaise, Op.3

    Wilhelm Fitzenhagen: Moto perpetuo

    Enrique Granados: Spanish Dance Op.37, No.5 - "Andaluza" - Arr. Maurice Gendron for Cello and Piano

    Antonín Dvorák: Humoresque in G Flat Major, Op.101, No.7

    ReplyDelete
  6. Wonderful! Many thanks for clarifying this.

    ReplyDelete
  7. Merci beaucoup.Toutefois je ne peux télécharger l'archive 13 : alerte virus.téléchargement bloqué

    ReplyDelete
    Replies
    1. Hello,
      Impossible de télécharger l'archive 13 (Chrome ou Firefox).Il apparait un écran rouge avec le message suivant:"Le site Web que vous allez ouvrir contient des programmes dangereux".Un de mes amis a rencontré le même problème.
      Cordialement
      Alain

      Delete
    2. REM GENRE Cello
      REM DATE 1964
      TITLE "Cello - Gendron 5 Bach, Beethoven"
      FILE "Cello - Gendron 5 Bach, Beethoven.ape" WAVE
      TRACK 01 AUDIO
      TITLE "Bach- Suite Cello Solo No.2 in D m, BWV1008 1. Prelude"
      PERFORMER "Maurice Gendron"
      FLAGS DCP
      INDEX 01 00:00:00
      TRACK 02 AUDIO
      TITLE "Bach- Suite Cello Solo No.2 in D m, BWV1008 2. Allemande"
      PERFORMER "Maurice Gendron"
      FLAGS DCP
      INDEX 01 03:35:29
      TRACK 03 AUDIO
      TITLE "Bach- Suite Cello Solo No.2 in D m, BWV1008 3. Courante"
      PERFORMER "Maurice Gendron"
      FLAGS DCP
      INDEX 01 07:11:54
      TRACK 04 AUDIO
      TITLE "Bach- Suite Cello Solo No.2 in D m, BWV1008 4. Sarabande"
      PERFORMER "Maurice Gendron"
      FLAGS DCP
      INDEX 01 09:11:29
      TRACK 05 AUDIO
      TITLE "Bach- Suite Cello Solo No.2 in D m, BWV1008 5. Menuet I-II"
      PERFORMER "Maurice Gendron"
      FLAGS DCP
      INDEX 01 13:49:29
      TRACK 06 AUDIO
      TITLE "Bach- Suite Cello Solo No.2 in D m, BWV1008 6. Gigue"
      PERFORMER "Maurice Gendron"
      FLAGS DCP
      INDEX 01 16:48:29
      TRACK 07 AUDIO
      TITLE "Bach- Suite Cello Solo No.3 in C, BWV1009 1. Prelude"
      PERFORMER "Maurice Gendron"
      FLAGS DCP
      INDEX 01 19:42:41
      TRACK 08 AUDIO
      TITLE "Bach- Suite Cello Solo No.3 in C, BWV1009 2. Allemande"
      PERFORMER "Maurice Gendron"
      FLAGS DCP
      INDEX 01 23:19:41
      TRACK 09 AUDIO
      TITLE "Bach- Suite Cello Solo No.3 in C, BWV1009 3. Courante"
      PERFORMER "Maurice Gendron"
      FLAGS DCP
      INDEX 01 26:52:41
      TRACK 10 AUDIO
      TITLE "Bach- Suite Cello Solo No.3 in C, BWV1009 4. Sarabande"
      PERFORMER "Maurice Gendron"
      FLAGS DCP
      INDEX 01 30:05:41
      TRACK 11 AUDIO
      TITLE "Bach- Suite Cello Solo No.3 in C, BWV1009 5. Bourree I-II"
      PERFORMER "Maurice Gendron"
      FLAGS DCP
      INDEX 01 34:29:41
      TRACK 12 AUDIO
      TITLE "Bach- Suite Cello Solo No.3 in C, BWV1009 6. Gigue"
      PERFORMER "Maurice Gendron"
      FLAGS DCP
      INDEX 01 37:38:41
      TRACK 13 AUDIO
      TITLE "Bach- Suite Cello Solo No.5 in C m, BWV1011 1. Prelude"
      PERFORMER "Maurice Gendron"
      FLAGS DCP
      INDEX 01 41:11:17
      TRACK 14 AUDIO
      TITLE "Bach- Suite Cello Solo No.5 in C m, BWV1011 2. Allemande"
      PERFORMER "Maurice Gendron"
      FLAGS DCP
      INDEX 01 46:58:17
      TRACK 15 AUDIO
      TITLE "Bach- Suite Cello Solo No.5 in C m, BWV1011 3. Courante"
      PERFORMER "Maurice Gendron"
      FLAGS DCP
      INDEX 01 52:22:17
      TRACK 16 AUDIO
      TITLE "Bach- Suite Cello Solo No.5 in C m, BWV1011 4. Sarabande"
      PERFORMER "Maurice Gendron"
      FLAGS DCP
      INDEX 01 54:52:17
      TRACK 17 AUDIO
      TITLE "Bach- Suite Cello Solo No.5 in C m, BWV1011 5. Gavotte I-II"
      PERFORMER "Maurice Gendron"
      FLAGS DCP
      INDEX 01 58:20:17
      TRACK 18 AUDIO
      TITLE "Bach- Suite Cello Solo No.5 in C m, BWV1011 6. Gigue"
      PERFORMER "Maurice Gendron"
      FLAGS DCP
      INDEX 01 63:07:17
      TRACK 19 AUDIO
      TITLE "Beethoven- 12 Var 'See conquering hero comes', WoO45"
      PERFORMER "Maurice Gendron, , Jean Francaix p"
      FLAGS DCP
      INDEX 01 65:52:17

      Delete
  8. CD1

    REM GENRE Classical
    REM DATE 1946
    PERFORMER "Maurice Gendron"
    TITLE "Cello - Gendron 1 Dvorak, Schubert"
    FILE "Cello - Gendron 1 Dvorak, Schubert.ape" WAVE
    TRACK 01 AUDIO
    TITLE "Dvorak- Cello Con in B m, Op.104 1. Allegro"
    PERFORMER "Maurice Gendron, London Phil Orch- Karl Rankl"
    FLAGS DCP
    INDEX 01 00:00:00
    TRACK 02 AUDIO
    TITLE "Dvorak- Cello Con in B m, Op.104 2. Adagio ma non troppo"
    PERFORMER "Maurice Gendron, London Phil Orch- Karl Rankl"
    FLAGS DCP
    INDEX 01 14:15:27
    TRACK 03 AUDIO
    TITLE "Dvorak- Cello Con in B m, Op.104 3. Finale, Allegro moderato"
    PERFORMER "Maurice Gendron, London Phil Orch- Karl Rankl"
    FLAGS DCP
    INDEX 01 25:23:08
    TRACK 04 AUDIO
    TITLE "Schubert- Son Arpeggione & Piano in A m, D.821 1. Allegro moderato"
    PERFORMER "Maurice Gendron, Jean Francaix p"
    FLAGS DCP
    INDEX 01 37:24:20
    TRACK 05 AUDIO
    TITLE "Schubert- Son Arpeggione & Piano in A m, D.821 2. Adagio"
    PERFORMER "Maurice Gendron, Jean Francaix p"
    FLAGS DCP
    INDEX 01 45:36:62
    TRACK 06 AUDIO
    TITLE "Schubert- Son Arpeggione & Piano in A m, D.821 3. Allegretto"
    PERFORMER "Maurice Gendron, Jean Francaix p"
    INDEX 01 50:16:21
    TRACK 07 AUDIO
    TITLE "Tchaikovsky- Var on a Rococo Theme, Op.33"
    PERFORMER "Maurice Gendron, L'Orch la Suisse Romande- Ernest Ansermet"
    FLAGS DCP
    INDEX 01 58:48:32

    ReplyDelete
  9. CD 2

    REM GENRE Classical
    PERFORMER "Maurice Gendron"
    TITLE "Cello - Gendron 2 Schumann"
    FILE "Cello - Gendron 2 Schumann.ape" WAVE
    TRACK 01 AUDIO
    TITLE "Schumann- Cello Con in A m, Op.129 1. Nicht zu schnell"
    PERFORMER "Maurice Gendron, L'Orch la Suisse Romande- Ernest Ansermet"
    FLAGS DCP
    INDEX 01 00:00:00
    TRACK 02 AUDIO
    TITLE "Schumann- Cello Con in A m, Op.129 2. Langsam"
    PERFORMER "Maurice Gendron, L'Orch la Suisse Romande- Ernest Ansermet"
    FLAGS DCP
    INDEX 01 10:34:39
    TRACK 03 AUDIO
    TITLE "Schumann- Cello Con in A m, Op.129 3. Sehr lebhaft"
    PERFORMER "Maurice Gendron, L'Orch la Suisse Romande- Ernest Ansermet"
    FLAGS DCP
    INDEX 01 14:37:52
    TRACK 04 AUDIO
    TITLE "Schumann- Fantasiestucke, Op.73 1. Zart und mit Ausdruck"
    PERFORMER "Maurice Gendron, Jean Francaix p"
    FLAGS DCP
    INDEX 01 22:05:41
    TRACK 05 AUDIO
    TITLE "Schumann- Fantasiestucke, Op.73 2. Lebhaft, leicht"
    PERFORMER "Maurice Gendron, Jean Francaix p"
    FLAGS DCP
    INDEX 01 25:22:53
    TRACK 06 AUDIO
    TITLE "Schumann- Fantasiestucke, Op.73 3. Rasch und mit Feuer"
    PERFORMER "Maurice Gendron, Jean Francaix p"
    FLAGS DCP
    INDEX 01 29:20:13
    TRACK 07 AUDIO
    TITLE "Schumann- 3 Romances, Op.94 No.1 Nicht schnell"
    PERFORMER "Maurice Gendron, Jean Francaix p"
    FLAGS DCP
    INDEX 01 34:00:63
    TRACK 08 AUDIO
    TITLE "Schumann- 3 Romances, Op.94 No.2 Einfach, innig"
    PERFORMER "Maurice Gendron, Jean Francaix p"
    FLAGS DCP
    INDEX 01 37:06:72
    TRACK 09 AUDIO
    TITLE "Schumann- 3 Romances, Op.94 No.3 Nicht schnell"
    PERFORMER "Maurice Gendron, Jean Francaix p"
    FLAGS DCP
    INDEX 01 41:07:41
    TRACK 10 AUDIO
    TITLE "Schumann- Cello Con in A m, Op.129 1. Nicht zu schnell"
    PERFORMER "Maurice Gendron, Wiener Sym- Christoph Dohnanyi"
    FLAGS DCP
    INDEX 01 44:58:30
    TRACK 11 AUDIO
    TITLE "Schumann- Cello Con in A m, Op.129 2. Langsam"
    PERFORMER "Maurice Gendron, Wiener Sym- Christoph Dohnanyi"
    FLAGS DCP
    INDEX 01 55:45:58
    TRACK 12 AUDIO
    TITLE "Schumann- Cello Con in A m, Op.129 3. Sehr lebhaft"
    PERFORMER "Maurice Gendron, Wiener Sym- Christoph Dohnanyi"
    FLAGS DCP
    INDEX 01 60:20:04

    ReplyDelete
  10. CD 3

    REM GENRE Classical
    PERFORMER "Maurice Gendron"
    TITLE "Cello - Gendron 2 Schumann"
    FILE "Cello - Gendron 2 Schumann.ape" WAVE
    TRACK 01 AUDIO
    TITLE "Schumann- Cello Con in A m, Op.129 1. Nicht zu schnell"
    PERFORMER "Maurice Gendron, L'Orch la Suisse Romande- Ernest Ansermet"
    FLAGS DCP
    INDEX 01 00:00:00
    TRACK 02 AUDIO
    TITLE "Schumann- Cello Con in A m, Op.129 2. Langsam"
    PERFORMER "Maurice Gendron, L'Orch la Suisse Romande- Ernest Ansermet"
    FLAGS DCP
    INDEX 01 10:34:39
    TRACK 03 AUDIO
    TITLE "Schumann- Cello Con in A m, Op.129 3. Sehr lebhaft"
    PERFORMER "Maurice Gendron, L'Orch la Suisse Romande- Ernest Ansermet"
    FLAGS DCP
    INDEX 01 14:37:52
    TRACK 04 AUDIO
    TITLE "Schumann- Fantasiestucke, Op.73 1. Zart und mit Ausdruck"
    PERFORMER "Maurice Gendron, Jean Francaix p"
    FLAGS DCP
    INDEX 01 22:05:41
    TRACK 05 AUDIO
    TITLE "Schumann- Fantasiestucke, Op.73 2. Lebhaft, leicht"
    PERFORMER "Maurice Gendron, Jean Francaix p"
    FLAGS DCP
    INDEX 01 25:22:53
    TRACK 06 AUDIO
    TITLE "Schumann- Fantasiestucke, Op.73 3. Rasch und mit Feuer"
    PERFORMER "Maurice Gendron, Jean Francaix p"
    FLAGS DCP
    INDEX 01 29:20:13
    TRACK 07 AUDIO
    TITLE "Schumann- 3 Romances, Op.94 No.1 Nicht schnell"
    PERFORMER "Maurice Gendron, Jean Francaix p"
    FLAGS DCP
    INDEX 01 34:00:63
    TRACK 08 AUDIO
    TITLE "Schumann- 3 Romances, Op.94 No.2 Einfach, innig"
    PERFORMER "Maurice Gendron, Jean Francaix p"
    FLAGS DCP
    INDEX 01 37:06:72
    TRACK 09 AUDIO
    TITLE "Schumann- 3 Romances, Op.94 No.3 Nicht schnell"
    PERFORMER "Maurice Gendron, Jean Francaix p"
    FLAGS DCP
    INDEX 01 41:07:41
    TRACK 10 AUDIO
    TITLE "Schumann- Cello Con in A m, Op.129 1. Nicht zu schnell"
    PERFORMER "Maurice Gendron, Wiener Sym- Christoph Dohnanyi"
    FLAGS DCP
    INDEX 01 44:58:30
    TRACK 11 AUDIO
    TITLE "Schumann- Cello Con in A m, Op.129 2. Langsam"
    PERFORMER "Maurice Gendron, Wiener Sym- Christoph Dohnanyi"
    FLAGS DCP
    INDEX 01 55:45:58
    TRACK 12 AUDIO
    TITLE "Schumann- Cello Con in A m, Op.129 3. Sehr lebhaft"
    PERFORMER "Maurice Gendron, Wiener Sym- Christoph Dohnanyi"
    FLAGS DCP
    INDEX 01 60:20:04

    ReplyDelete
    Replies
    1. Your post for CD3 is a copy of the CD2 info you posted. If you have the CD3 cue file, please post its content when you have time. TIA

      Delete
    2. Here ya go:

      REM GENRE Classical
      PERFORMER "Maurice Gendron"
      TITLE "Maurice Gendron 3 Haydn, Boccherini, Tchaikovsky"
      FILE "Maurice Gendron 3 Haydn, Boccherini, Tchaikovsky.ape" WAVE
      TRACK 01 AUDIO
      TITLE "Joseph Haydn - Cello Concerto in D, H.VIIb No.2, Allegro moderato"
      PERFORMER "Maurice Gendron"
      FLAGS DCP
      INDEX 01 00:00:00
      TRACK 02 AUDIO
      TITLE "Joseph Haydn - Cello Concerto in D, H.VIIb No.2, Adagio"
      PERFORMER "Maurice Gendron"
      FLAGS DCP
      INDEX 01 15:29:24
      TRACK 03 AUDIO
      TITLE "Joseph Haydn - Cello Concerto in D, H.VIIb No.2, Rondo (Allegro)"
      PERFORMER "Maurice Gendron"
      FLAGS DCP
      INDEX 01 21:11:24
      TRACK 04 AUDIO
      TITLE "Luigi Boccherini - Cello Concerto in B flat, Allegro Moderato"
      PERFORMER "Maurice Gendron"
      FLAGS DCP
      INDEX 01 26:20:04
      TRACK 05 AUDIO
      TITLE "Luigi Boccherini: Cello Concerto in B flat, Andantino Grazioso"
      PERFORMER "Maurice Gendron"
      FLAGS DCP
      INDEX 01 35:59:11
      TRACK 06 AUDIO
      TITLE "Luigi Boccherini: Cello Concerto in B flat, Rondo (Allegro)"
      PERFORMER "Maurice Gendron"
      FLAGS DCP
      INDEX 01 41:45:61
      TRACK 07 AUDIO
      TITLE "Tchaikovsky - Variations on a Rococo Theme, Op.33"
      PERFORMER "Maurice Gendron"
      FLAGS DCP
      INDEX 01 48:40:06
      TRACK 08 AUDIO
      TITLE "Tchaikovsky - Pezzo capriccioso for cello and orchestra, Op.62"
      PERFORMER "Maurice Gendron"
      FLAGS DCP
      INDEX 01 66:32:35

      Delete
  11. CD 4


    REM GENRE Cello
    REM DATE 1964
    PERFORMER "Maurice Gendron"
    TITLE "Cello - Gendron 4 Bach"
    FILE "Maurice Gendron - Bach - The 6 Cello Suites (disk 1).ape" WAVE
    TRACK 01 AUDIO
    TITLE "Bach- Suite Cello Solo No.1 in G, BWV1007 I Prelude"
    INDEX 01 00:00:00
    TRACK 02 AUDIO
    TITLE "Bach- Suite Cello Solo No.1 in G, BWV1007 II Allemande"
    INDEX 01 02:26:00
    TRACK 03 AUDIO
    TITLE "Bach- Suite Cello Solo No.1 in G, BWV1007 III Courante"
    INDEX 01 06:35:00
    TRACK 04 AUDIO
    TITLE "Bach- Suite Cello Solo No.1 in G, BWV1007 IV Sarabande"
    INDEX 01 09:10:00
    TRACK 05 AUDIO
    TITLE "Bach- Suite Cello Solo No.1 in G, BWV1007 V Menuets I & II"
    INDEX 01 12:15:00
    TRACK 06 AUDIO
    TITLE "Bach- Suite Cello Solo No.1 in G, BWV1007 VI Gigue"
    INDEX 01 15:19:25
    TRACK 07 AUDIO
    TITLE "Bach- Suite Cello Solo No.4 in E flat, BWV1010 I Prelude"
    INDEX 01 17:22:00
    TRACK 08 AUDIO
    TITLE "Bach- Suite Cello Solo No.4 in E flat, BWV1010 II Allemande"
    INDEX 01 22:30:00
    TRACK 09 AUDIO
    TITLE "Bach- Suite Cello Solo No.4 in E flat, BWV1010 III Courante"
    INDEX 01 25:48:00
    TRACK 10 AUDIO
    TITLE "Bach- Suite Cello Solo No.4 in E flat, BWV1010 IV Sarabande"
    INDEX 01 29:51:00
    TRACK 11 AUDIO
    TITLE "Bach- Suite Cello Solo No.4 in E flat, BWV1010 V Bourees I & II"
    INDEX 01 34:39:00
    TRACK 12 AUDIO
    TITLE "Bach- Suite Cello Solo No.4 in E flat, BWV1010 VI Gigue"
    INDEX 01 40:02:00
    TRACK 13 AUDIO
    TITLE "Bach- Suite Cello Solo No.6 in D, BWV1012 I Prelude"
    INDEX 01 43:01:00
    TRACK 14 AUDIO
    TITLE "Bach- Suite Cello Solo No.6 in D, BWV1012 II Allemande"
    INDEX 01 48:08:00
    TRACK 15 AUDIO
    TITLE "Bach- Suite Cello Solo No.6 in D, BWV1012 III Courante"
    INDEX 01 56:22:00
    TRACK 16 AUDIO
    TITLE "Bach- Suite Cello Solo No.6 in D, BWV1012 IV Sarabande"
    INDEX 01 60:13:00
    TRACK 17 AUDIO
    TITLE "Bach- Suite Cello Solo No.6 in D, BWV1012 V Gavottes I & II"
    INDEX 01 64:44:00
    TRACK 18 AUDIO
    TITLE "Bach- Suite Cello Solo No.6 in D, BWV1012 VI Gigue"
    INDEX 01 68:40:50

    ReplyDelete
  12. CD 5

    REM GENRE Cello
    REM DATE 1964
    TITLE "Cello - Gendron 5 Bach, Beethoven"
    FILE "Cello - Gendron 5 Bach, Beethoven.ape" WAVE
    TRACK 01 AUDIO
    TITLE "Bach- Suite Cello Solo No.2 in D m, BWV1008 1. Prelude"
    PERFORMER "Maurice Gendron"
    FLAGS DCP
    INDEX 01 00:00:00
    TRACK 02 AUDIO
    TITLE "Bach- Suite Cello Solo No.2 in D m, BWV1008 2. Allemande"
    PERFORMER "Maurice Gendron"
    FLAGS DCP
    INDEX 01 03:35:29
    TRACK 03 AUDIO
    TITLE "Bach- Suite Cello Solo No.2 in D m, BWV1008 3. Courante"
    PERFORMER "Maurice Gendron"
    FLAGS DCP
    INDEX 01 07:11:54
    TRACK 04 AUDIO
    TITLE "Bach- Suite Cello Solo No.2 in D m, BWV1008 4. Sarabande"
    PERFORMER "Maurice Gendron"
    FLAGS DCP
    INDEX 01 09:11:29
    TRACK 05 AUDIO
    TITLE "Bach- Suite Cello Solo No.2 in D m, BWV1008 5. Menuet I-II"
    PERFORMER "Maurice Gendron"
    FLAGS DCP
    INDEX 01 13:49:29
    TRACK 06 AUDIO
    TITLE "Bach- Suite Cello Solo No.2 in D m, BWV1008 6. Gigue"
    PERFORMER "Maurice Gendron"
    FLAGS DCP
    INDEX 01 16:48:29
    TRACK 07 AUDIO
    TITLE "Bach- Suite Cello Solo No.3 in C, BWV1009 1. Prelude"
    PERFORMER "Maurice Gendron"
    FLAGS DCP
    INDEX 01 19:42:41
    TRACK 08 AUDIO
    TITLE "Bach- Suite Cello Solo No.3 in C, BWV1009 2. Allemande"
    PERFORMER "Maurice Gendron"
    FLAGS DCP
    INDEX 01 23:19:41
    TRACK 09 AUDIO
    TITLE "Bach- Suite Cello Solo No.3 in C, BWV1009 3. Courante"
    PERFORMER "Maurice Gendron"
    FLAGS DCP
    INDEX 01 26:52:41
    TRACK 10 AUDIO
    TITLE "Bach- Suite Cello Solo No.3 in C, BWV1009 4. Sarabande"
    PERFORMER "Maurice Gendron"
    FLAGS DCP
    INDEX 01 30:05:41
    TRACK 11 AUDIO
    TITLE "Bach- Suite Cello Solo No.3 in C, BWV1009 5. Bourree I-II"
    PERFORMER "Maurice Gendron"
    FLAGS DCP
    INDEX 01 34:29:41
    TRACK 12 AUDIO
    TITLE "Bach- Suite Cello Solo No.3 in C, BWV1009 6. Gigue"
    PERFORMER "Maurice Gendron"
    FLAGS DCP
    INDEX 01 37:38:41
    TRACK 13 AUDIO
    TITLE "Bach- Suite Cello Solo No.5 in C m, BWV1011 1. Prelude"
    PERFORMER "Maurice Gendron"
    FLAGS DCP
    INDEX 01 41:11:17
    TRACK 14 AUDIO
    TITLE "Bach- Suite Cello Solo No.5 in C m, BWV1011 2. Allemande"
    PERFORMER "Maurice Gendron"
    FLAGS DCP
    INDEX 01 46:58:17
    TRACK 15 AUDIO
    TITLE "Bach- Suite Cello Solo No.5 in C m, BWV1011 3. Courante"
    PERFORMER "Maurice Gendron"
    FLAGS DCP
    INDEX 01 52:22:17
    TRACK 16 AUDIO
    TITLE "Bach- Suite Cello Solo No.5 in C m, BWV1011 4. Sarabande"
    PERFORMER "Maurice Gendron"
    FLAGS DCP
    INDEX 01 54:52:17
    TRACK 17 AUDIO
    TITLE "Bach- Suite Cello Solo No.5 in C m, BWV1011 5. Gavotte I-II"
    PERFORMER "Maurice Gendron"
    FLAGS DCP
    INDEX 01 58:20:17
    TRACK 18 AUDIO
    TITLE "Bach- Suite Cello Solo No.5 in C m, BWV1011 6. Gigue"
    PERFORMER "Maurice Gendron"
    FLAGS DCP
    INDEX 01 63:07:17
    TRACK 19 AUDIO
    TITLE "Beethoven- 12 Var 'See conquering hero comes', WoO45"
    PERFORMER "Maurice Gendron, , Jean Francaix p"
    FLAGS DCP
    INDEX 01 65:52:17

    ReplyDelete
  13. CD 6

    REM GENRE Cello
    TITLE "Cello - Gendron 6 Beethoven, Vivaldi"
    FILE "Cello - Gendron 6 Beethoven, Vivaldi.ape" WAVE
    TRACK 01 AUDIO
    TITLE "Beethoven- 7 Var on 'Bei Mannern, welche Liebe fuhlen', WoO46"
    PERFORMER "Maurice Gendron, Jean Francaix p"
    FLAGS DCP
    INDEX 01 00:00:00
    TRACK 02 AUDIO
    TITLE "Beethoven- 12 Var on 'Ein Madchen oder Weibchen', Op.66"
    PERFORMER "Maurice Gendron, Jean Francaix p"
    FLAGS DCP
    INDEX 01 10:17:65
    TRACK 03 AUDIO
    TITLE "Vivaldi- Son Cello & Continuo in B flat, RV.47 1. Largo"
    PERFORMER "Maurice Gendron, Marijke Smit Sibinga, Hans Lang"
    FLAGS DCP
    INDEX 01 19:37:37
    TRACK 04 AUDIO
    TITLE "Vivaldi- Son Cello & Continuo in B flat, RV.47 2. Allegro"
    PERFORMER "Maurice Gendron, Marijke Smit Sibinga, Hans Lang"
    FLAGS DCP
    INDEX 01 22:45:45
    TRACK 05 AUDIO
    TITLE "Vivaldi- Son Cello & Continuo in B flat, RV.47 3. Largo"
    PERFORMER "Maurice Gendron, Marijke Smit Sibinga, Hans Lang"
    FLAGS DCP
    INDEX 01 24:57:42
    TRACK 06 AUDIO
    TITLE "Vivaldi- Son Cello & Continuo in B flat, RV.47 4. Allegro"
    PERFORMER "Maurice Gendron, Marijke Smit Sibinga, Hans Lang"
    FLAGS DCP
    INDEX 01 27:07:69
    TRACK 07 AUDIO
    TITLE "Vivaldi- Son Cello & Continuo in F, RV.41 1. Largo"
    PERFORMER "Maurice Gendron, Marijke Smit Sibinga, Hans Lang"
    FLAGS DCP
    INDEX 01 28:40:10
    TRACK 08 AUDIO
    TITLE "Vivaldi- Son Cello & Continuo in F, RV.41 2. Allegro"
    PERFORMER "Maurice Gendron, Marijke Smit Sibinga, Hans Lang"
    FLAGS DCP
    INDEX 01 32:11:47
    TRACK 09 AUDIO
    TITLE "Vivaldi- Son Cello & Continuo in F, RV.41 3. Largo"
    PERFORMER "Maurice Gendron, Marijke Smit Sibinga, Hans Lang"
    FLAGS DCP
    INDEX 01 34:08:55
    TRACK 10 AUDIO
    TITLE "Vivaldi- Son Cello & Continuo in F, RV.41 4. Allegro"
    PERFORMER "Maurice Gendron, Marijke Smit Sibinga, Hans Lang"
    FLAGS DCP
    INDEX 01 37:50:41
    TRACK 11 AUDIO
    TITLE "Vivaldi- Son Cello & Continuo in a m, RV.43 1. Largo"
    PERFORMER "Maurice Gendron, Marijke Smit Sibinga, Hans Lang"
    FLAGS DCP
    INDEX 01 39:45:38
    TRACK 12 AUDIO
    TITLE "Vivaldi- Son Cello & Continuo in a m, RV.43 2. Allegro poco"
    PERFORMER "Maurice Gendron, Marijke Smit Sibinga, Hans Lang"
    FLAGS DCP
    INDEX 01 42:30:62
    TRACK 13 AUDIO
    TITLE "Vivaldi- Son Cello & Continuo in a m, RV.43 3. Largo"
    PERFORMER "Maurice Gendron, Marijke Smit Sibinga, Hans Lang"
    FLAGS DCP
    INDEX 01 44:25:54
    TRACK 14 AUDIO
    TITLE "Vivaldi- Son Cello & Continuo in a m, RV.43 4. Allegro"
    PERFORMER "Maurice Gendron, Marijke Smit Sibinga, Hans Lang"
    FLAGS DCP
    INDEX 01 47:45:23
    TRACK 15 AUDIO
    TITLE "Vivaldi- Son Cello & Continuo in B flat, RV.45 1. Largo"
    PERFORMER "Maurice Gendron, Marijke Smit Sibinga, Hans Lang"
    FLAGS DCP
    INDEX 01 50:01:00

    ReplyDelete
  14. CD 6 Cont

    TRACK 16 AUDIO
    TITLE "Vivaldi- Son Cello & Continuo in B flat, RV.45 2. Allegro"
    PERFORMER "Maurice Gendron, Marijke Smit Sibinga, Hans Lang"
    FLAGS DCP
    INDEX 01 52:32:01
    TRACK 17 AUDIO
    TITLE "Vivaldi- Son Cello & Continuo in B flat, RV.45 3. Largo"
    PERFORMER "Maurice Gendron, Marijke Smit Sibinga, Hans Lang"
    FLAGS DCP
    INDEX 01 54:26:19
    TRACK 18 AUDIO
    TITLE "Vivaldi- Son Cello & Continuo in B flat, RV.45 . Allegro"
    PERFORMER "Maurice Gendron, Marijke Smit Sibinga, Hans Lang"
    FLAGS DCP
    INDEX 01 58:17:03
    TRACK 19 AUDIO
    TITLE "Vivaldi- Son Cello & Continuo in e m, RV.40 1. Largo"
    PERFORMER "Maurice Gendron, Marijke Smit Sibinga, Hans Lang"
    FLAGS DCP
    INDEX 01 60:23:32
    TRACK 20 AUDIO
    TITLE "Vivaldi- Son Cello & Continuo in e m, RV.40 2. Allegro"
    PERFORMER "Maurice Gendron, Marijke Smit Sibinga, Hans Lang"
    FLAGS DCP
    INDEX 01 63:10:45
    TRACK 21 AUDIO
    TITLE "Vivaldi- Son Cello & Continuo in e m, RV.40 3. Largo"
    PERFORMER "Maurice Gendron, Marijke Smit Sibinga, Hans Lang"
    FLAGS DCP
    INDEX 01 64:39:51
    TRACK 22 AUDIO
    TITLE "Vivaldi- Son Cello & Continuo in e m, RV.40 4. Allegro"
    PERFORMER "Maurice Gendron, Marijke Smit Sibinga, Hans Lang"
    FLAGS DCP
    INDEX 01 67:28:08
    TRACK 23 AUDIO
    TITLE "Vivaldi- Son Cello & Continuo in B flat, RV.46 1. Preludio (Largo)"
    PERFORMER "Maurice Gendron, Marijke Smit Sibinga, Hans Lang"
    FLAGS DCP
    INDEX 01 68:58:28
    TRACK 24 AUDIO
    TITLE "Vivaldi- Son Cello & Continuo in B flat, RV.46 2. Allemanda (Allegro)"
    PERFORMER "Maurice Gendron, Marijke Smit Sibinga, Hans Lang"
    FLAGS DCP
    INDEX 01 71:26:20
    TRACK 25 AUDIO
    TITLE "Vivaldi- Son Cello & Continuo in B flat, RV.46 3. Largo"
    PERFORMER "Maurice Gendron, Marijke Smit Sibinga, Hans Lang"
    FLAGS DCP
    INDEX 01 73:14:74
    TRACK 26 AUDIO
    TITLE "Vivaldi- Son Cello & Continuo in B flat, RV.46 4. Corrente (Allegro)"
    PERFORMER "Maurice Gendron, Marijke Smit Sibinga, Hans Lang"
    FLAGS DCP
    INDEX 01 76:21:25

    ReplyDelete
  15. CD 7

    TRACK 16 AUDIO
    TITLE "Vivaldi- Son Cello & Continuo in B flat, RV.45 2. Allegro"
    PERFORMER "Maurice Gendron, Marijke Smit Sibinga, Hans Lang"
    FLAGS DCP
    INDEX 01 52:32:01
    TRACK 17 AUDIO
    TITLE "Vivaldi- Son Cello & Continuo in B flat, RV.45 3. Largo"
    PERFORMER "Maurice Gendron, Marijke Smit Sibinga, Hans Lang"
    FLAGS DCP
    INDEX 01 54:26:19
    TRACK 18 AUDIO
    TITLE "Vivaldi- Son Cello & Continuo in B flat, RV.45 . Allegro"
    PERFORMER "Maurice Gendron, Marijke Smit Sibinga, Hans Lang"
    FLAGS DCP
    INDEX 01 58:17:03
    TRACK 19 AUDIO
    TITLE "Vivaldi- Son Cello & Continuo in e m, RV.40 1. Largo"
    PERFORMER "Maurice Gendron, Marijke Smit Sibinga, Hans Lang"
    FLAGS DCP
    INDEX 01 60:23:32
    TRACK 20 AUDIO
    TITLE "Vivaldi- Son Cello & Continuo in e m, RV.40 2. Allegro"
    PERFORMER "Maurice Gendron, Marijke Smit Sibinga, Hans Lang"
    FLAGS DCP
    INDEX 01 63:10:45
    TRACK 21 AUDIO
    TITLE "Vivaldi- Son Cello & Continuo in e m, RV.40 3. Largo"
    PERFORMER "Maurice Gendron, Marijke Smit Sibinga, Hans Lang"
    FLAGS DCP
    INDEX 01 64:39:51
    TRACK 22 AUDIO
    TITLE "Vivaldi- Son Cello & Continuo in e m, RV.40 4. Allegro"
    PERFORMER "Maurice Gendron, Marijke Smit Sibinga, Hans Lang"
    FLAGS DCP
    INDEX 01 67:28:08
    TRACK 23 AUDIO
    TITLE "Vivaldi- Son Cello & Continuo in B flat, RV.46 1. Preludio (Largo)"
    PERFORMER "Maurice Gendron, Marijke Smit Sibinga, Hans Lang"
    FLAGS DCP
    INDEX 01 68:58:28
    TRACK 24 AUDIO
    TITLE "Vivaldi- Son Cello & Continuo in B flat, RV.46 2. Allemanda (Allegro)"
    PERFORMER "Maurice Gendron, Marijke Smit Sibinga, Hans Lang"
    FLAGS DCP
    INDEX 01 71:26:20
    TRACK 25 AUDIO
    TITLE "Vivaldi- Son Cello & Continuo in B flat, RV.46 3. Largo"
    PERFORMER "Maurice Gendron, Marijke Smit Sibinga, Hans Lang"
    FLAGS DCP
    INDEX 01 73:14:74
    TRACK 26 AUDIO
    TITLE "Vivaldi- Son Cello & Continuo in B flat, RV.46 4. Corrente (Allegro)"
    PERFORMER "Maurice Gendron, Marijke Smit Sibinga, Hans Lang"
    FLAGS DCP
    INDEX 01 76:21:25

    ReplyDelete
    Replies
    1. CD 7 corrected:

      REM GENRE Classical
      PERFORMER "Maurice Gendron"
      TITLE "Maurice Gendron 7 Schubert, Debussy, Françaix, Fauré, Messiaen"
      FILE "Maurice Gendron 7 Schubert, Debussy, Françaix, Fauré, Messiaen.ape" WAVE
      TRACK 01 AUDIO
      TITLE "Franz Schubert - Sonata for Arpeggione and Piano in A minor, D.821, Allegro Moderato"
      PERFORMER "Maurice Gendron"
      FLAGS DCP
      INDEX 01 00:00:00
      TRACK 02 AUDIO
      TITLE "Franz Schubert - Sonata for Arpeggione and Piano in A minor, D.821, Adagio"
      PERFORMER "Maurice Gendron"
      FLAGS DCP
      INDEX 01 08:13:70
      TRACK 03 AUDIO
      TITLE "Franz Schubert - Sonata for Arpeggione and Piano in A minor, D.821, Allegretto"
      PERFORMER "Maurice Gendron"
      FLAGS DCP
      INDEX 01 13:15:30
      TRACK 04 AUDIO
      TITLE "Claude Debussy - Sonata for Cello and Piano in D minor, Prologue (lent)"
      PERFORMER "Maurice Gendron"
      FLAGS DCP
      INDEX 01 22:05:47
      TRACK 05 AUDIO
      TITLE "Claude Debussy - Sonata for Cello and Piano in D minor, Sérénade (Modérément Animé)"
      PERFORMER "Maurice Gendron"
      FLAGS DCP
      INDEX 01 27:06:44
      TRACK 06 AUDIO
      TITLE "Claude Debussy - Sonata for Cello and Piano in D minor, (Animé)"
      PERFORMER "Maurice Gendron"
      FLAGS DCP
      INDEX 01 30:57:14
      TRACK 07 AUDIO
      TITLE "Jean Françaix - Berceuse"
      PERFORMER "Maurice Gendron"
      FLAGS DCP
      INDEX 01 34:05:31
      TRACK 08 AUDIO
      TITLE "Jean Françaix - Rondino staccato (Arr. Maurice Gendron)"
      PERFORMER "Maurice Gendron"
      FLAGS DCP
      INDEX 01 38:16:66
      TRACK 09 AUDIO
      TITLE "Jean Françaix - Nocturne (Arr. Maurice Gendron)"
      PERFORMER "Maurice Gendron"
      FLAGS DCP
      INDEX 01 41:15:64
      TRACK 10 AUDIO
      TITLE "Jean Françaix - Mouvement Perpétuel"
      PERFORMER "Maurice Gendron
      INDEX 01 44:04:06
      TRACK 11 AUDIO
      TITLE "Jean Françaix - Sérénade (Arr. Maurice Gendron)"
      PERFORMER "Maurice Gendron"
      FLAGS DCP
      INDEX 01 46:10:59
      TRACK 12 AUDIO
      TITLE "Gabriel Fauré - Sonata for Cello and Piano No.2 in D minor, Op.117, Allegro"
      PERFORMER "Maurice Gendron"
      FLAGS DCP
      INDEX 01 49:13:45
      TRACK 13 AUDIO
      TITLE "Gabriel Fauré - Sonata for Cello and Piano No.2 in D minor, Op.117, Andante"
      PERFORMER "Maurice Gendron"
      FLAGS DCP
      INDEX 01 56:19:12
      TRACK 14 AUDIO
      TITLE "Gabriel Fauré - Sonata for Cello and Piano No.2 in D minor, Op.117, Allegro Vivo"
      PERFORMER "Maurice Gendron"
      FLAGS DCP
      INDEX 01 64:15:14
      TRACK 15 AUDIO
      TITLE "Olivier Messiaen - Quatuor pour la fin du temps, (5) Louange à l'Eternité de Jésus"
      PERFORMER "Maurice Gendron"
      FLAGS DCP
      INDEX 01 69:42:12

      Delete
  16. CD 8

    REM GENRE Classical
    PERFORMER "Maurice Gendron"
    TITLE "Cello - Gendron 8 Haydn, Dvorak"
    FILE "Cello - Gendron 8 Haydn, Dvorak.ape" WAVE
    TRACK 01 AUDIO
    TITLE "Haydn- Cello Con in C, H.7b, No.1 1. Moderato"
    PERFORMER "Maurice Gendron, London Sym Orch- Raymond Leppard"
    FLAGS DCP
    INDEX 01 00:00:00
    TRACK 02 AUDIO
    TITLE "Haydn- Cello Con in C, H.7b, No.1 2. Adagio"
    PERFORMER "Maurice Gendron, London Sym Orch- Raymond Leppard"
    FLAGS DCP
    INDEX 01 09:45:69
    TRACK 03 AUDIO
    TITLE "Haydn- Cello Con in C, H.7b, No.1 3. Finale, Allegro molto"
    PERFORMER "Maurice Gendron, London Sym Orch- Raymond Leppard"
    FLAGS DCP
    INDEX 01 18:13:15
    TRACK 04 AUDIO
    TITLE "Dvorak- Cello Con in B m, Op.104 1. Allegro"
    PERFORMER "Maurice Gendron, London Sym Orch- Bernard Haitink"
    FLAGS DCP
    INDEX 01 25:39:35
    TRACK 05 AUDIO
    TITLE "Dvorak- Cello Con in B m, Op.104 2. Adagio ma non troppo"
    PERFORMER "Maurice Gendron, London Sym Orch- Bernard Haitink"
    FLAGS DCP
    INDEX 01 40:15:55
    TRACK 06 AUDIO
    TITLE "Dvorak- Cello Con in B m, Op.104 3. Finale, Allegro moderato"
    PERFORMER "Maurice Gendron, London Sym Orch- Bernard Haitink"
    FLAGS DCP
    INDEX 01 52:08:53
    TRACK 07 AUDIO
    TITLE "Dvorak- Rondo in G minor, Op.94"
    PERFORMER "Maurice Gendron, London Sym Orch- Bernard Haitink"
    FLAGS DCP
    INDEX 01 65:06:53
    TRACK 08 AUDIO
    TITLE "Dvorak- Silent Woods, Op.68-5"
    PERFORMER "Maurice Gendron, London Sym Orch- Bernard Haitink"
    FLAGS DCP
    INDEX 01 72:43:34

    ReplyDelete
  17. CD 9

    REM GENRE Classical
    PERFORMER "Maurice Gendron"
    TITLE "Cello - Gendron 9 Boccherini, Lalo"
    FILE "Cello - Gendron 9 Boccherini, Lalo.ape" WAVE
    TRACK 01 AUDIO
    TITLE "Boccherini- Cello Con in G, 1. Allegro"
    PERFORMER "Maurice Gendron, London Sym Orch- Raymond Leppard"
    FLAGS DCP
    INDEX 01 00:00:00
    TRACK 02 AUDIO
    TITLE "Boccherini- Cello Con in G, 2. Adagio"
    PERFORMER "Maurice Gendron, London Sym Orch- Raymond Leppard"
    FLAGS DCP
    INDEX 01 08:00:33
    TRACK 03 AUDIO
    TITLE "Boccherini- Cello Con in G, 3. Allegro"
    PERFORMER "Maurice Gendron, London Sym Orch- Raymond Leppard"
    FLAGS DCP
    INDEX 01 13:46:22
    TRACK 04 AUDIO
    TITLE "Saint-Saens- Cello Con No.1 in A m, Op.33"
    PERFORMER "Maurice Gendron, Orch National de l'Opera de Monte-Carlo- Roberto Benzi"
    FLAGS DCP
    INDEX 01 19:57:39
    TRACK 05 AUDIO
    TITLE "Faure- Elegie, Op.24"
    PERFORMER "Maurice Gendron, Orch National de l'Opera de Monte-Carlo- Roberto Benzi"
    FLAGS DCP
    INDEX 01 37:42:72
    TRACK 06 AUDIO
    TITLE "Lalo- Cello Con in D m, 1. Prelude, Lento, Allegro maestoso"
    PERFORMER "Maurice Gendron, Orch National de l'Opera de Monte-Carlo- Roberto Benzi"
    FLAGS DCP
    INDEX 01 45:09:65
    TRACK 07 AUDIO
    TITLE "Lalo- Cello Con in D m, 2. Intermezzo, Andantino con moto, Allegro"
    PERFORMER "Maurice Gendron, Orch National de l'Opera de Monte-Carlo- Roberto Benzi"
    FLAGS DCP
    INDEX 01 57:30:27
    TRACK 08 AUDIO
    TITLE "Lalo- Cello Con in D m, 3. Andante, Allegro vivace"
    PERFORMER "Maurice Gendron, Orch National de l'Opera de Monte-Carlo- Roberto Benzi"
    FLAGS DCP
    INDEX 01 63:16:15

    ReplyDelete
  18. CD 10

    REM GENRE Chamber
    REM DATE 1959
    PERFORMER "Maurice Gendron, Hephzibah Menuhin, Yehudi Menuhin"
    TITLE "Cello - Gendron 10 Beethoven, Schubert"
    FILE "Cello - Gendron 10 Beethoven, Schubert.ape" WAVE
    TRACK 01 AUDIO
    TITLE "Beethoven- Piano Trio No.5 In D, Op.70-1 'Ghost' 1. Allegro vivace e con brio"
    FLAGS DCP
    INDEX 01 00:00:00
    TRACK 02 AUDIO
    TITLE "Beethoven- Piano Trio No.5 In D, Op.70-1 'Ghost' 2. Largo assai ed espressivo"
    FLAGS DCP
    INDEX 01 07:29:39
    TRACK 03 AUDIO
    TITLE "Beethoven- Piano Trio No.5 In D, Op.70-1 'Ghost' 3. Presto"
    FLAGS DCP
    INDEX 01 17:10:51
    TRACK 04 AUDIO
    TITLE "Schubert- Piano Trio No.1 in B flat, Op.99 1. Allegro moderato"
    FLAGS DCP
    INDEX 01 25:54:42
    TRACK 05 AUDIO
    TITLE "Schubert- Piano Trio No.1 in B flat, Op.99 2. Andante un poco mosso"
    FLAGS DCP
    INDEX 01 41:11:54
    TRACK 06 AUDIO
    TITLE "Schubert- Piano Trio No.1 in B flat, Op.99 3. Scherzo, Allegro"
    FLAGS DCP
    INDEX 01 50:25:11
    TRACK 07 AUDIO
    TITLE "Schubert- Piano Trio No.1 in B flat, Op.99 4. Rondo, Allegro vivace"
    FLAGS DCP
    INDEX 01 56:27:26
    TRACK 08 AUDIO
    TITLE "Schubert- Sonatensatz in B Flat, D.28"
    FLAGS DCP
    INDEX 01 65:22:21

    ReplyDelete
  19. CD 11

    REM GENRE Chamber
    REM DATE 1964
    PERFORMER "Maurice Gendron, Yehudi Menuhin, Hephzibah Menuhin"
    TITLE "Cello - Gendron 11 Beethoven, Schubert"
    FILE "Cello - Gendron 11 Beethoven, Schubert.ape" WAVE
    TRACK 01 AUDIO
    TITLE "Beethoven- Piano Trio No.6 in E flat, Op.70-2 1. Poco sostenuto, Allegro ma non troppo"
    FLAGS DCP
    INDEX 01 00:00:00
    TRACK 02 AUDIO
    TITLE "Beethoven- Piano Trio No.6 in E flat, Op.70-2 2. Allegretto"
    FLAGS DCP
    INDEX 01 09:31:18
    TRACK 03 AUDIO
    TITLE "Beethoven- Piano Trio No.6 in E flat, Op.70-2 3. Allegretto ma non troppo"
    FLAGS DCP
    INDEX 01 15:05:26
    TRACK 04 AUDIO
    TITLE "Beethoven- Piano Trio No.6 in E flat, Op.70-2 4. Finale, Allegro"
    FLAGS DCP
    INDEX 01 21:01:53
    TRACK 05 AUDIO
    TITLE "Schubert- Piano Trio No.2 in E flat, Op.100 1. Allegro"
    FLAGS DCP
    INDEX 01 28:18:26
    TRACK 06 AUDIO
    TITLE "Schubert- Piano Trio No.2 in E flat, Op.100 2. Andante con moto"
    FLAGS DCP
    INDEX 01 40:44:34
    TRACK 07 AUDIO
    TITLE "Schubert- Piano Trio No.2 in E flat, Op.100 3. Scherzando, Allegro molto & Trio"
    FLAGS DCP
    INDEX 01 49:58:63
    TRACK 08 AUDIO
    TITLE "Schubert- Piano Trio No.2 in E flat, Op.100 4. Allegro moderato"
    FLAGS DCP
    INDEX 01 56:33:68
    TRACK 09 AUDIO
    TITLE "Schubert- Notturno in E flat major D.897"
    FLAGS DCP
    INDEX 01 70:10:39

    ReplyDelete
  20. CD 12

    REM GENRE Chamber
    REM DATE 1964
    PERFORMER "Maurice Gendron, Robert Masters v, Ernst Wallfisch vla, Yehudi Menuhin v, Derek Simpson clo, Cecil Aronowitz vla"
    TITLE "Cello - Gendron 12 Brahms Sextet"
    FILE "Yehudi Menuhin - String Sextets No.1 & 2.ape" WAVE
    TRACK 01 AUDIO
    TITLE "Brahms- String Sextet No.1 in B flat, Op.18 I: Allegro ma non troppo"
    FLAGS DCP
    INDEX 01 00:00:00
    TRACK 02 AUDIO
    TITLE "Brahms- String Sextet No.1 in B flat, Op.18 II: Andante, ma moderato"
    FLAGS DCP
    INDEX 01 12:11:72
    TRACK 03 AUDIO
    TITLE "Brahms- String Sextet No.1 in B flat, Op.18 III: Scherzo (Allegro molto) & Tr..."
    FLAGS DCP
    INDEX 01 22:31:57
    TRACK 04 AUDIO
    TITLE "Brahms- String Sextet No.1 in B flat, Op.18 IV: Rondo (Poco allegretto e graz..."
    FLAGS DCP
    INDEX 01 25:38:25
    TRACK 05 AUDIO
    TITLE "Brahms- String Sextet No.2 in G, Op.36 I: Allegro non troppo"
    FLAGS DCP
    INDEX 01 37:30:40
    TRACK 06 AUDIO
    TITLE "Brahms- String Sextet No.2 in G, Op.36 II: Scherzo (Allegro non troppo - Pres..."
    FLAGS DCP
    INDEX 01 48:28:30
    TRACK 07 AUDIO
    TITLE "Brahms- String Sextet No.2 in G, Op.36 III: Poco adagio"
    FLAGS DCP
    INDEX 01 56:41:27
    TRACK 08 AUDIO
    TITLE "Brahms- String Sextet No.2 in G, Op.36 IV: Poco allegro"
    FLAGS DCP
    INDEX 01 65:58:27

    ReplyDelete
  21. CD 14

    REM GENRE Cello
    PERFORMER "Maurice Gendron"
    TITLE "Cello - Gendron 14 Var Artist"
    FILE "Cello - Gendron 14 Var Artist.ape" WAVE
    TRACK 01 AUDIO
    TITLE "David Popper- Serenade, Op.54, No.2"
    PERFORMER "Maurice Gendron, Peter Gallion p"
    FLAGS DCP
    INDEX 01 00:00:00
    TRACK 02 AUDIO
    TITLE "Handel- Serse, Act1 Ombra mai fu"
    PERFORMER "Maurice Gendron, Peter Gallion p"
    FLAGS DCP
    INDEX 01 03:32:74
    TRACK 03 AUDIO
    TITLE "Saint-Saens- Le Carnaval des Animaux, Le Cygne"
    PERFORMER "Maurice Gendron, Peter Gallion p"
    FLAGS DCP
    INDEX 01 08:37:70
    TRACK 04 AUDIO
    TITLE "Schumann- Kinderszenen, Op.15 7. Traumerei"
    PERFORMER "Maurice Gendron, Peter Gallion p"
    FLAGS DCP
    INDEX 01 11:47:61
    TRACK 05 AUDIO
    TITLE "Rimsky-Korsakov- Tale Of Tsar Saltan, Flight of Bumble-Bee"
    PERFORMER "Maurice Gendron, Peter Gallion p"
    FLAGS DCP
    INDEX 01 15:06:02
    TRACK 06 AUDIO
    TITLE "Paganini- Mose, Intro & Var on 'Dal tuo stellato'"
    PERFORMER "Maurice Gendron, Peter Gallion p"
    FLAGS DCP
    INDEX 01 16:18:58
    TRACK 07 AUDIO
    TITLE "Moszkowski- Guitare, Op.45, No.2"
    PERFORMER "Maurice Gendron, Peter Gallion p"
    FLAGS DCP
    INDEX 01 23:34:01
    TRACK 08 AUDIO
    TITLE "Kreisler- Liebesleid"
    PERFORMER "Maurice Gendron, Peter Gallion p"
    FLAGS DCP
    INDEX 01 26:41:12
    TRACK 09 AUDIO
    TITLE "Falla- La vida breve, Act2 Spanish Dance No.1"
    PERFORMER "Maurice Gendron, Peter Gallion p"
    FLAGS DCP
    INDEX 01 29:50:02
    TRACK 10 AUDIO
    TITLE "Bach- Ich ruf zu dir, Herr Jesu Christ, BWV639"
    PERFORMER "Maurice Gendron, Peter Gallion p"
    FLAGS DCP
    INDEX 01 33:04:03
    TRACK 11 AUDIO
    TITLE "Chopin- Introduction & Polonaise, Op.3"
    PERFORMER "Maurice Gendron, Peter Gallion p"
    FLAGS DCP
    INDEX 01 36:11:71
    TRACK 12 AUDIO
    TITLE "Wilhelm Fitzenhagen- Moto perpetuo"
    PERFORMER "Maurice Gendron, Peter Gallion p"
    FLAGS DCP
    INDEX 01 44:01:44
    TRACK 13 AUDIO
    TITLE "Granados- Spanish Dance Op.37, No.5 'Andaluza'"
    PERFORMER "Maurice Gendron, Peter Gallion p"
    FLAGS DCP
    INDEX 01 46:59:62
    TRACK 14 AUDIO
    TITLE "Dvorak- Humoresque in G Flat, Op.101, No.7"
    PERFORMER "Maurice Gendron, Peter Gallion p"
    FLAGS DCP
    INDEX 01 51:17:10

    ReplyDelete
  22. CD 13

    REM GENRE Chamber
    PERFORMER "Maurice Gendron, Yehudi Menuhin, Hephzibah Menuhin"
    TITLE "Cello - Gendron 13 Brahms"
    FILE "Cello - Gendron 13 Brahms.ape" WAVE
    TRACK 01 AUDIO
    TITLE "Brahms- Piano Trio No.2 in C, Op.87 1. Allegro"
    FLAGS DCP
    INDEX 01 00:00:00
    TRACK 02 AUDIO
    TITLE "Brahms- Piano Trio No.2 in C, Op.87 2. Andante con moto"
    FLAGS DCP
    INDEX 01 09:02:35
    TRACK 03 AUDIO
    TITLE "Brahms- Piano Trio No.2 in C, Op.87 3. Scherzo, Presto"
    FLAGS DCP
    INDEX 01 16:09:38
    TRACK 04 AUDIO
    TITLE "Brahms- Piano Trio No.2 in C, Op.87 4. Finale, Allegro giocoso"
    FLAGS DCP
    INDEX 01 20:28:56
    TRACK 05 AUDIO
    TITLE "Tchaikovsky- Piano Trio in A m, Op.50 1. Pezzo elegiaco, Moderato assai"
    FLAGS DCP
    INDEX 01 26:32:56
    TRACK 06 AUDIO
    TITLE "Tchaikovsky- Piano Trio in A m, Op.50 2. Tema, Andante con moto"
    FLAGS DCP
    INDEX 01 44:26:16
    TRACK 07 AUDIO
    TITLE "Tchaikovsky- Piano Trio in A m, Op.50 Var. I: L'istesso tempo"
    FLAGS DCP
    INDEX 01 45:20:66
    TRACK 08 AUDIO
    TITLE "Tchaikovsky- Piano Trio in A m, Op.50 Var. II: Piu mosso"
    FLAGS DCP
    INDEX 01 46:11:57
    TRACK 09 AUDIO
    TITLE "Tchaikovsky- Piano Trio in A m, Op.50 Var. III: Allegro moderato"
    FLAGS DCP
    INDEX 01 46:53:57
    TRACK 10 AUDIO
    TITLE "Tchaikovsky- Piano Trio in A m, Op.50 Var. IV: L'istesso tempo"
    FLAGS DCP
    INDEX 01 47:43:56
    TRACK 11 AUDIO
    TITLE "Tchaikovsky- Piano Trio in A m, Op.50 Var. V: L'istesso tempo"
    FLAGS DCP
    INDEX 01 48:48:37
    TRACK 12 AUDIO
    TITLE "Tchaikovsky- Piano Trio in A m, Op.50 Var. VI: Tempo di valse"
    FLAGS DCP
    INDEX 01 49:26:57
    TRACK 13 AUDIO
    TITLE "Tchaikovsky- Piano Trio in A m, Op.50 Var. VII: Allegro moderato"
    FLAGS DCP
    INDEX 01 51:56:23
    TRACK 14 AUDIO
    TITLE "Tchaikovsky- Piano Trio in A m, Op.50 Var. VIII: Fuga, Allegro moderato"
    FLAGS DCP
    INDEX 01 53:24:24
    TRACK 15 AUDIO
    TITLE "Tchaikovsky- Piano Trio in A m, Op.50 Var. IX: Andante flebile, ma non tanto"
    FLAGS DCP
    INDEX 01 56:06:61
    TRACK 16 AUDIO
    TITLE "Tchaikovsky- Piano Trio in A m, Op.50 Var. X: Tempo di mazurka"
    FLAGS DCP
    INDEX 01 59:11:19
    TRACK 17 AUDIO
    TITLE "Tchaikovsky- Piano Trio in A m, Op.50 Var. XI: Moderato"
    FLAGS DCP
    INDEX 01 61:01:10
    TRACK 18 AUDIO
    TITLE "Tchaikovsky- Piano Trio in A m, Op.50 Variazione finale e Coda"
    FLAGS DCP
    INDEX 01 63:04:52

    ReplyDelete
  23. CD 13

    REM GENRE Chamber
    PERFORMER "Maurice Gendron, Yehudi Menuhin, Hephzibah Menuhin"
    TITLE "Cello - Gendron 13 Brahms"
    FILE "Cello - Gendron 13 Brahms.ape" WAVE
    TRACK 01 AUDIO
    TITLE "Brahms- Piano Trio No.2 in C, Op.87 1. Allegro"
    FLAGS DCP
    INDEX 01 00:00:00
    TRACK 02 AUDIO
    TITLE "Brahms- Piano Trio No.2 in C, Op.87 2. Andante con moto"
    FLAGS DCP
    INDEX 01 09:02:35
    TRACK 03 AUDIO
    TITLE "Brahms- Piano Trio No.2 in C, Op.87 3. Scherzo, Presto"
    FLAGS DCP
    INDEX 01 16:09:38
    TRACK 04 AUDIO
    TITLE "Brahms- Piano Trio No.2 in C, Op.87 4. Finale, Allegro giocoso"
    FLAGS DCP
    INDEX 01 20:28:56
    TRACK 05 AUDIO
    TITLE "Tchaikovsky- Piano Trio in A m, Op.50 1. Pezzo elegiaco, Moderato assai"
    FLAGS DCP
    INDEX 01 26:32:56
    TRACK 06 AUDIO
    TITLE "Tchaikovsky- Piano Trio in A m, Op.50 2. Tema, Andante con moto"
    FLAGS DCP
    INDEX 01 44:26:16
    TRACK 07 AUDIO
    TITLE "Tchaikovsky- Piano Trio in A m, Op.50 Var. I: L'istesso tempo"
    FLAGS DCP
    INDEX 01 45:20:66
    TRACK 08 AUDIO
    TITLE "Tchaikovsky- Piano Trio in A m, Op.50 Var. II: Piu mosso"
    FLAGS DCP
    INDEX 01 46:11:57
    TRACK 09 AUDIO
    TITLE "Tchaikovsky- Piano Trio in A m, Op.50 Var. III: Allegro moderato"
    FLAGS DCP
    INDEX 01 46:53:57
    TRACK 10 AUDIO
    TITLE "Tchaikovsky- Piano Trio in A m, Op.50 Var. IV: L'istesso tempo"
    FLAGS DCP
    INDEX 01 47:43:56
    TRACK 11 AUDIO
    TITLE "Tchaikovsky- Piano Trio in A m, Op.50 Var. V: L'istesso tempo"
    FLAGS DCP
    INDEX 01 48:48:37
    TRACK 12 AUDIO
    TITLE "Tchaikovsky- Piano Trio in A m, Op.50 Var. VI: Tempo di valse"
    FLAGS DCP
    INDEX 01 49:26:57
    TRACK 13 AUDIO
    TITLE "Tchaikovsky- Piano Trio in A m, Op.50 Var. VII: Allegro moderato"
    FLAGS DCP
    INDEX 01 51:56:23
    TRACK 14 AUDIO
    TITLE "Tchaikovsky- Piano Trio in A m, Op.50 Var. VIII: Fuga, Allegro moderato"
    FLAGS DCP
    INDEX 01 53:24:24
    TRACK 15 AUDIO
    TITLE "Tchaikovsky- Piano Trio in A m, Op.50 Var. IX: Andante flebile, ma non tanto"
    FLAGS DCP
    INDEX 01 56:06:61
    TRACK 16 AUDIO
    TITLE "Tchaikovsky- Piano Trio in A m, Op.50 Var. X: Tempo di mazurka"
    FLAGS DCP
    INDEX 01 59:11:19
    TRACK 17 AUDIO
    TITLE "Tchaikovsky- Piano Trio in A m, Op.50 Var. XI: Moderato"
    FLAGS DCP
    INDEX 01 61:01:10
    TRACK 18 AUDIO
    TITLE "Tchaikovsky- Piano Trio in A m, Op.50 Variazione finale e Coda"
    FLAGS DCP
    INDEX 01 63:04:52

    ReplyDelete
  24. CD 14

    REM GENRE Cello
    PERFORMER "Maurice Gendron"
    TITLE "Cello - Gendron 14 Var Artist"
    FILE "Cello - Gendron 14 Var Artist.ape" WAVE
    TRACK 01 AUDIO
    TITLE "David Popper- Serenade, Op.54, No.2"
    PERFORMER "Maurice Gendron, Peter Gallion p"
    FLAGS DCP
    INDEX 01 00:00:00
    TRACK 02 AUDIO
    TITLE "Handel- Serse, Act1 Ombra mai fu"
    PERFORMER "Maurice Gendron, Peter Gallion p"
    FLAGS DCP
    INDEX 01 03:32:74
    TRACK 03 AUDIO
    TITLE "Saint-Saens- Le Carnaval des Animaux, Le Cygne"
    PERFORMER "Maurice Gendron, Peter Gallion p"
    FLAGS DCP
    INDEX 01 08:37:70
    TRACK 04 AUDIO
    TITLE "Schumann- Kinderszenen, Op.15 7. Traumerei"
    PERFORMER "Maurice Gendron, Peter Gallion p"
    FLAGS DCP
    INDEX 01 11:47:61
    TRACK 05 AUDIO
    TITLE "Rimsky-Korsakov- Tale Of Tsar Saltan, Flight of Bumble-Bee"
    PERFORMER "Maurice Gendron, Peter Gallion p"
    FLAGS DCP
    INDEX 01 15:06:02
    TRACK 06 AUDIO
    TITLE "Paganini- Mose, Intro & Var on 'Dal tuo stellato'"
    PERFORMER "Maurice Gendron, Peter Gallion p"
    FLAGS DCP
    INDEX 01 16:18:58
    TRACK 07 AUDIO
    TITLE "Moszkowski- Guitare, Op.45, No.2"
    PERFORMER "Maurice Gendron, Peter Gallion p"
    FLAGS DCP
    INDEX 01 23:34:01
    TRACK 08 AUDIO
    TITLE "Kreisler- Liebesleid"
    PERFORMER "Maurice Gendron, Peter Gallion p"
    FLAGS DCP
    INDEX 01 26:41:12
    TRACK 09 AUDIO
    TITLE "Falla- La vida breve, Act2 Spanish Dance No.1"
    PERFORMER "Maurice Gendron, Peter Gallion p"
    FLAGS DCP
    INDEX 01 29:50:02
    TRACK 10 AUDIO
    TITLE "Bach- Ich ruf zu dir, Herr Jesu Christ, BWV639"
    PERFORMER "Maurice Gendron, Peter Gallion p"
    FLAGS DCP
    INDEX 01 33:04:03
    TRACK 11 AUDIO
    TITLE "Chopin- Introduction & Polonaise, Op.3"
    PERFORMER "Maurice Gendron, Peter Gallion p"
    FLAGS DCP
    INDEX 01 36:11:71
    TRACK 12 AUDIO
    TITLE "Wilhelm Fitzenhagen- Moto perpetuo"
    PERFORMER "Maurice Gendron, Peter Gallion p"
    FLAGS DCP
    INDEX 01 44:01:44
    TRACK 13 AUDIO
    TITLE "Granados- Spanish Dance Op.37, No.5 'Andaluza'"
    PERFORMER "Maurice Gendron, Peter Gallion p"
    FLAGS DCP
    INDEX 01 46:59:62
    TRACK 14 AUDIO
    TITLE "Dvorak- Humoresque in G Flat, Op.101, No.7"
    PERFORMER "Maurice Gendron, Peter Gallion p"
    FLAGS DCP
    INDEX 01 51:17:10

    ReplyDelete
  25. Many thanks for this set, and for the tracklist and proper .cues.

    ReplyDelete

Related Posts Plugin for WordPress, Blogger...