Sunday, August 11, 2013

Scarlatti:The Keyboard Sonatas Scott Ross ERATO 34CD




11 comments:

  1. http://ul.to/s0ugckhw
    http://ul.to/3l9c8sdi
    http://ul.to/m9o00pv4
    http://ul.to/s67c84la
    http://ul.to/9srz3l7v
    http://ul.to/7s2rql14
    http://ul.to/9840jeqh
    http://ul.to/pdv51106
    http://ul.to/rkykk6uk
    http://ul.to/ftggsfrb
    http://ul.to/zte119pu
    http://ul.to/mgcqn52g
    http://ul.to/5qcvl9ao
    http://ul.to/dhj2u0b9
    http://ul.to/e40xhk51
    http://ul.to/6mhyqlng
    http://ul.to/nvgluf38
    http://ul.to/niyij7lj
    http://ul.to/96r9yvbk
    http://ul.to/1bih9grd
    http://ul.to/v30ambge
    http://ul.to/sm45mwic
    http://ul.to/yir6l1i0
    http://ul.to/3klsx3t0
    http://ul.to/fhykmkqh
    http://ul.to/zjeh3q2l
    http://ul.to/vy32iygm
    http://ul.to/kdp0pnwo
    http://ul.to/ap6alva8
    http://ul.to/wr51pg4w
    http://ul.to/5zs8xktk
    http://ul.to/eft3ahj7
    http://ul.to/ucmkafoh
    http://ul.to/cfgx7hcz
    http://ul.to/gdf7j089
    http://ul.to/9br7wfw4
    http://ul.to/m2wiaqyc
    http://ul.to/hzphsg26
    http://ul.to/eab8tx5k
    http://ul.to/suvr1ldi
    http://ul.to/6medmnkq
    http://ul.to/x03pru82
    http://ul.to/chj7hqmg
    http://ul.to/5sjryjmo
    http://ul.to/zlnp1bi3
    http://ul.to/on6k4k14
    http://ul.to/vtmvwlk0
    http://ul.to/kr27gtu2
    http://ul.to/k5yk17y2
    http://ul.to/5y9ztihv
    http://ul.to/z1krflyc
    http://ul.to/maj8xzqu
    http://ul.to/v3hqf35s
    http://ul.to/rv4z2uf1
    http://ul.to/g3zrg1zi
    http://ul.to/kclcks00
    http://ul.to/ngqopd9j
    http://ul.to/tlkzth9m
    http://ul.to/veutzway
    http://ul.to/el50ixua
    http://ul.to/jhjq2lgj
    http://ul.to/npi60hno
    http://ul.to/qess36m8
    http://ul.to/htwc9dvu
    http://ul.to/e6q44oyh
    http://ul.to/4rdm2g2h
    http://ul.to/fhgcd6xx
    http://ul.to/nx221kqr

    ReplyDelete
    Replies
    1. Thanks bayreuth for this superbe upload. But... it is overhelming difficult to download all this files, unless I buy a premium account. I'll search eslewhere, perhaps in torrents.

      Delete
    2. The second link is not working.

      Delete
  2. Hello Bayreuth. Please be informed that my unraring stopped at part 66. Furthermore , from CD 31 on, there are no more cue-files. Did the rest of the world experience the same problem? jc

    ReplyDelete
  3. Cue CD 31???? Thanks.

    ReplyDelete
  4. REM GENRE Classical
    REM DATE
    PERFORMER "Scott Ross"
    TITLE "Scarlatti Keyboard Sonatas Disc 31"
    FILE "CDImage.ape" WAVE
    TRACK 01 AUDIO
    TITLE "Sonata in C major Kk 501 - Allegretto"
    INDEX 01 00:00:00
    TRACK 02 AUDIO
    TITLE "Sonata in C major Kk 502 - Allegro"
    INDEX 01 05:03:52
    TRACK 03 AUDIO
    TITLE "Sonata in B flat major Kk 503 - Allegretto"
    INDEX 01 09:23:74
    TRACK 04 AUDIO
    TITLE "Sonata in B flat major Kk 504 - Allegro"
    INDEX 01 11:55:48
    TRACK 05 AUDIO
    TITLE "Sonata in F major Kk 505 - Allegro non presto"
    INDEX 01 14:33:28
    TRACK 06 AUDIO
    TITLE "Sonata in F major Kk 506 - Allegro"
    INDEX 01 17:11:13
    TRACK 07 AUDIO
    TITLE "Sonata in E flat major Kk 507 - Andantino cantabile"
    INDEX 01 20:05:39
    TRACK 08 AUDIO
    TITLE "Sonata in E flat major Kk 508 - Allegro"
    INDEX 01 24:12:53
    TRACK 09 AUDIO
    TITLE "Sonata in D major Kk 509 - Allegro"
    INDEX 01 28:47:20
    TRACK 10 AUDIO
    TITLE "Sonata in D major Kk 510 - Allegro"
    INDEX 01 32:09:24
    TRACK 11 AUDIO
    TITLE "Sonata in D minor Kk 511 - Allegro"
    INDEX 01 35:10:33
    TRACK 12 AUDIO
    TITLE "Sonata in D minor Kk 512 - Allegro"
    INDEX 01 37:56:56
    TRACK 13 AUDIO
    TITLE "Sonata in C major Kk 513 - Moderato e molto allegro - Presto"
    INDEX 01 41:11:59
    TRACK 14 AUDIO
    TITLE "Sonata in C major Kk 514 - Allegro"
    INDEX 01 46:09:25
    TRACK 15 AUDIO
    TITLE "Sonata in C major Kk 515 - Allegro"
    INDEX 01 48:25:24
    TRACK 16 AUDIO
    TITLE "Sonata in D minor Kk 516 - Allegretto"
    INDEX 01 51:33:53
    TRACK 17 AUDIO
    TITLE "Sonata in D minor Kk 517 - Prestissimo"
    INDEX 01 55:15:24
    TRACK 18 AUDIO
    TITLE "Sonata in F major Kk 518 - Allegro"
    INDEX 01 58:40:23
    TRACK 19 AUDIO
    TITLE "Sonata in F minor Kk 519 - Allegro assai"
    INDEX 01 62:37:13

    ReplyDelete
    Replies
    1. The code looks OK but ...
      I can't get it to work with Burrn (does not show any track details)

      Delete
  5. Can someone tell me if this collection is lossless (FLAC, etc) or mp3?

    ReplyDelete
  6. The second link is not working
    http://ul.to/3l9c8sdi

    ReplyDelete
  7. All links dead, please reupload. Thanks

    ReplyDelete

Related Posts Plugin for WordPress, Blogger...