Sunday, April 21, 2013

Wagner: The Operas by Solti DECCA 36CD + Toscanini CD39



15 comments:

  1. Toscanini:
    http://ul.to/kqgsyeg1
    Solti:
    http://ul.to/s82famtg
    http://ul.to/dxzqca18
    http://ul.to/fanuazbg
    http://ul.to/lqb1qyd8
    http://ul.to/i36nkg3d
    http://ul.to/x7cxiofk
    http://ul.to/tjia79n1
    http://ul.to/a0vddr96
    http://ul.to/ws82p40d
    http://ul.to/8nlcl0vg
    http://ul.to/u4v3kna0
    http://ul.to/538657oi
    http://ul.to/f7rpzlyn
    http://ul.to/8h5e451n
    http://ul.to/zfxjnso4
    http://ul.to/4ec9t9wy
    http://ul.to/tr8w57b0
    http://ul.to/j8s8kfbk
    http://ul.to/ct2yj2xq
    http://ul.to/fkncezxx
    http://ul.to/i0bc4pv2
    http://ul.to/7hsf5fsb
    http://ul.to/jfesna4z
    http://ul.to/diudr7bb
    http://ul.to/ee6yeee8
    http://ul.to/l0zyws0k
    http://ul.to/r38wejb7
    http://ul.to/3q5ur39y
    http://ul.to/dcvih8sx
    http://ul.to/t59xs5w5
    http://ul.to/gwmzpc3o
    http://ul.to/2akm635k
    http://ul.to/ory6n94i
    http://ul.to/o731khul
    http://ul.to/joookvug
    http://ul.to/pgjky9sc
    http://ul.to/vn02ylwn
    http://ul.to/xcyy4nhe
    http://ul.to/wvph17od
    http://ul.to/scs59s4o
    http://ul.to/ntfnapue
    http://ul.to/fq735ksx
    http://ul.to/al9lezog
    http://ul.to/2iv3isi3
    http://ul.to/e17l7hmb
    http://ul.to/p9sm01lf
    http://ul.to/o0jbio5j
    http://ul.to/qkbhh6op
    http://ul.to/8v4vncoy
    http://ul.to/eqi8rwz7
    http://ul.to/q0rr4gqn
    http://ul.to/isjebbtb

    ReplyDelete
  2. it seems that uploaded.net has some problems of connection

    ReplyDelete
  3. thanks a lot, but where could i find any additional info about the Toscanini bonus? what does it mean 'CD 39'?
    the shared rip contains no information in itself, because this:

    E:\APE\rip\Toscanini CD39\Unknown Artist - Unknown Title.ape

    Track 1 not present in database
    Track 2 not present in database
    Track 3 not present in database
    Track 4 not present in database
    Track 5 not present in database
    Track 6 not present in database
    Track 7 not present in database
    Track 8 not present in database
    Track 9 not present in database
    Track 10 not present in database

    and this with similar:

    REM DISCID A210EE0A
    REM COMMENT "ExactAudioCopy v1.0b3"
    PERFORMER "Unknown Artist"
    TITLE "Unknown Title"
    FILE "Unknown Artist - Unknown Title.ape" WAVE
    TRACK 01 AUDIO
    TITLE "Track01"
    PERFORMER "Unknown Artist"
    INDEX 01 00:00:00
    TRACK 02 AUDIO
    TITLE "Track02"
    PERFORMER "Unknown Artist"
    FLAGS DCP
    INDEX 01 04:48:15
    TRACK 03 AUDIO
    TITLE "Track03"
    PERFORMER "Unknown Artist"
    FLAGS DCP
    INDEX 01 12:14:02
    TRACK 04 AUDIO
    TITLE "Track04"
    PERFORMER "Unknown Artist"
    FLAGS DCP
    INDEX 00 16:08:73
    INDEX 01 16:16:73

    couldn't be identified without the kind and friendly help from your side.

    please, do convey any relevant information for identifying the disc and the tracks.

    thanks in advance.

    ReplyDelete
    Replies
    1. Sorry.I confused.The missing cd is cd29.I I will reup cd29 later.

      Delete
  4. uploaded.net is one of 27 sites blacked out by Italian Postal Police last week.

    ReplyDelete
    Replies
    1. they are all either under the menace, or collaborating with our enemies.

      Delete
    2. I supposed this was the sad reason.

      Delete
  5. Bayreuth Thanks for this gem of classical music.

    A hug

    PD:please upload in the future: liszt collection 34CDs DG

    Thanks, Thanks.

    ReplyDelete
  6. Thank you for this unique collection and also for the booklet.

    Please, I hope you include the booklet in the other collections.

    Thanks for this it's wonderful.

    ReplyDelete
  7. Four links are not working, for parts 48-51. Can these be fixed or reuploaded?

    Thank you for this marvelous contribution...

    ReplyDelete
  8. This is a wonderful site with great music. However I do have a problem with
    downloading. It is very very slow, and extremely unreliable. I have tried to download part 20 about 8 times, and each time it crashed.

    ReplyDelete
  9. I just downloaded the whole set and everything worked fine. Thanks Bayreuth!

    ReplyDelete
  10. Dont work: Solti Wagner 36 cd:

    http://ul.to/joookvug cd 18 and
    http://ul.to/gwmzpc3o cd 22
    Thank you for this contribution

    ReplyDelete
  11. Deutsche Welle / Dokumentation

    is nich viel, aber kommt von herzen- i shin den shin:

    Sir Georg Solti

    Für mein Leben habe ich kämpfen müssen

    Sir Georg Solti (1912 - 1997) war einer der herausragenden Dirigenten des 20. Jahrhunderts. Er wuchs als Sohn jüdischer Eltern in Budapest auf, studierte Klavier, Komposition und Dirigieren bei Bartók, Dohnányi, Kodály und Leo Weiner an der Liszt-Akademie in Budapest. Obwohl er bei seinem Konzertdebüt als Pianist auftrat, wurde er von der Budapester Oper wenig später als Dirigent engagiert. 1937 ernannte Toscanini ihn zu seinem Assistenten für die Salzburger Festspiele.

    Vor Ausbruch des Zweiten Weltkriegs zwangen die ungarischen Judenpogrome Solti 1939 zur Emigration in die Schweiz, wo er jedoch nicht als Dirigent auftreten durfte. Das hatte zur Folge, dass er seinen Lebensunterhalt als Pianist verdiente und 1942 beim Concours International in Genf den ersten Preis gewann. Im Jahr 1946 wurde Solti von der amerikanischen Militärregierung aufgefordert, in München eine Aufführung von Beethovens Fidelio zu dirigieren.

    Der große Erfolg dieser Darbietung führte zu seiner Ernennung zum Leiter der Münchner Staatsoper. Weitere Engagements an die Frankfurter Oper und an das Königliche Opernhaus Covent Garden London folgten. Trotz der schwierigen Bedingungen - praktisch überall musste er zu Beginn seiner Engagements gegen Vorurteile ankämpfen - führte er jedes Haus zur Weltspitze. Danach folgten Erfolge in Wien, Bayreuth, Berlin.

    Schließlich begann seine bemerkenswerte Partnerschaft mit dem Chicago Symphony Orchestra (1970 bis 1989), mit dem er über tausend Konzerte bestritt und mehr als hundertfünfzig Plattenaufnahmen einspielte. Sir Georg Solti hinterlässt eine Diskografie mit über 250 Aufnahmen und wurde insgesamt 105 Mal für den Grammy nominiert, und er ist der Künstler, der die meisten Grammys erhielt, unabhängig von der Musikrichtung.

    genießt es > einmalig = solange bis gelöscht

    und dankbar für eure möglichkeit der teilhabe meinerseits

    https://mega.nz/#!XtEhxZ6Z!MwnYL3ftLZG1kZt60zdXRnpe9wb_iJpqzxGUkbegk1Q


    ich hab auch noch ein schönes buch, aber ungelesen

    http://www.amazon.de/Solti-%C3%BCber-Georg/dp/346340317X

    ReplyDelete
  12. Thank you for your excellent site!

    Some links on this page are dead:
    18, 22, 49, 50, 51
    Any chance you could replace these?

    Thanks again,
    d.

    ReplyDelete

Related Posts Plugin for WordPress, Blogger...