Wednesday, April 24, 2013

Beethoven Complete Music For Piano Solo Buchbinder TELDEC 15CD



7 comments:

  1. http://ul.to/5g96ufip
    http://ul.to/7glaynql
    http://ul.to/hqxggrty
    http://ul.to/op12aq8g
    http://ul.to/vn7a9huw
    http://ul.to/ipjojij8
    http://ul.to/thvnfsj4
    http://ul.to/14x8hqdi
    http://ul.to/hih3c3js
    http://ul.to/luk532lq
    http://ul.to/p9wvvrbu
    http://ul.to/4uljrb0p
    http://ul.to/zbtrr8hu
    http://ul.to/r2jc9842
    http://ul.to/emx9dl55
    http://ul.to/w8fswmee
    http://ul.to/awqlioxf

    ReplyDelete
  2. Dear Bayreuth lovely music thank you. Alex.

    ReplyDelete
  3. Please, Bayreuth, I think there is a mistake. CD 5 and CD 6 are just the same thing. Sonatas 15, 16, 19, 20, 21 and 22 are not here.
    Otherwise, it's a magnificient series.
    Thank you very much

    ReplyDelete
    Replies
    1. Actually, CD5 and CD6 rips are OK. CD5 contains Sonatas 15, 19, 20, 21 & 22 (btw, Sonata 16 is on CD3), while CD6 contains Sonatas 17, 23, 24, 25 & 26. The mistake is in the cue file for CD5. You only need to replace the content of file "Beethoven - The Piano Sonatas rendition by Rudolf Buchbinder CD 5.cue" with the following text:

      REM GENRE Classical
      REM DISCID C010C50D
      REM COMMENT "ExactAudioCopy v1.0b3"
      PERFORMER "Beethoven"
      TITLE "The Piano Sonatas rendition by Rudolf Buchbinder CD 5"
      FILE "Beethoven - The Piano Sonatas rendition by Rudolf Buchbinder CD 5.ape" WAVE
      TRACK 01 AUDIO
      TITLE "Klaviersonate Nr. 15 D-dur, Op. 28 “Pastorale” - I. Allegro"
      PERFORMER "Beethoven"
      FLAGS DCP
      INDEX 01 00:00:00
      TRACK 02 AUDIO
      TITLE "II. Andante"
      PERFORMER "Beethoven"
      FLAGS DCP
      INDEX 01 09:18:52
      TRACK 03 AUDIO
      TITLE "III. Scherzo: Allegro vivace"
      PERFORMER "Beethoven"
      FLAGS DCP
      INDEX 01 15:44:33
      TRACK 04 AUDIO
      TITLE "IV. Rondo. Allegro ma non troppo"
      PERFORMER "Beethoven"
      FLAGS DCP
      INDEX 01 17:39:71
      TRACK 05 AUDIO
      TITLE "Klaviersonate Nr. 19 g-moll, Op. 49 Nr. 1 - I. Andante"
      PERFORMER "Beethoven"
      FLAGS DCP
      INDEX 01 22:32:19
      TRACK 06 AUDIO
      TITLE "II. Rondo. [Allegro]"
      PERFORMER "Beethoven"
      FLAGS DCP
      INDEX 01 26:27:06
      TRACK 07 AUDIO
      TITLE "Klaviersonate Nr. 20 G-dur, Op. 49 Nr. 2 - I. Allegro, ma non troppo"
      PERFORMER "Beethoven"
      FLAGS DCP
      INDEX 01 29:46:19
      TRACK 08 AUDIO
      TITLE "II. Tempo di menuetto"
      PERFORMER "Beethoven"
      FLAGS DCP
      INDEX 01 34:27:21
      TRACK 09 AUDIO
      TITLE "Klaviersonate Nr. 21 C-dur, Op. 53 “Waldstein” - I. Allegro con brio"
      PERFORMER "Beethoven"
      FLAGS DCP
      INDEX 01 38:18:01
      TRACK 10 AUDIO
      TITLE "II. Introduzione. Adagio molto"
      PERFORMER "Beethoven"
      FLAGS DCP
      INDEX 01 47:38:23
      TRACK 11 AUDIO
      TITLE "III. Rondo. Allegretto moderato — Prestissimo"
      PERFORMER "Beethoven"
      FLAGS DCP
      INDEX 01 51:16:23
      TRACK 12 AUDIO
      TITLE "Klaviersonate Nr. 22 F-dur, Op. 54 - I. In tempo d’un menuetto"
      PERFORMER "Beethoven"
      FLAGS DCP
      INDEX 01 60:22:29
      TRACK 13 AUDIO
      TITLE "II. Allegretto"
      PERFORMER "Beethoven"
      FLAGS DCP
      INDEX 01 65:34:36

      Just open the "Beethoven - The Piano Sonatas rendition by Rudolf Buchbinder CD 5.cue" file with any text editor, select the whole text, delete it and replace it with the text above. That's it. Is that correct, Bayreuth?

      Delete
  4. I am indebted for this upload. I love Buchbinder's Beethoven. Thank you very very much, Any chance of uploading the scans at all?

    VJ

    ReplyDelete

Related Posts Plugin for WordPress, Blogger...